Video Resolution - Confusion!
Post #1
Sajal1|| 
Members

12/05/2019 17:16:12
(22 weeks ago)
Ratio: 1.80
Posts: 2
Bangladesh  
The media-info of my movie:


Code

Video
ID                                       : 1
Format                                   : AVC
Format/Info                              : Advanced Video Codec
Format profile                           : [email protected]
Format settings                          : CABAC / 5 Ref Frames
Format settings, CABAC                   : Yes
Format settings, RefFrames               : 5 frames
Codec ID                                 : avc1
Codec ID/Info                            : Advanced Video Coding
Duration                                 : 1 h 29 min
Bit rate                                 : 1 100 kb/s
Width                                    : 720 pixels
Height                                   : 400 pixels
Display aspect ratio                     : 16:9
Frame rate mode                          : Constant
Frame rate                               : 23.976 (23976/1000) FPS
Color space                              : YUV
Chroma subsampling                       : 4:2:0
Bit depth                                : 8 bits
Scan type                                : Progressive
Bits/(Pixel*Frame)                       : 0.159
Stream size                              : 700 MiB (89%)
Writing library                          : x264 core 148 r2597M e86f3a1
Encoding settings                        : cabac=1 / ref=5 / deblock=1:-1:-1 / *censored*yse=0x3:0x113 / me=umh / subme=9 / psy=1 / psy_rd=1.00:0.15 / mixed_ref=1 / me_range=16 / chroma_me=1 / trellis=2 / 8x8dct=1 / cqm=0 / deadzone=21,11 / fast_pskip=1 / chroma_qp_offset=-3 / threads=12 / lookahead_threads=1 / sliced_threads=0 / nr=0 / decimate=1 / interlaced=0 / bluray_compat=0 / constrained_intra=0 / bframes=3 / b_pyramid=2 / b_adapt=2 / b_bias=0 / direct=3 / weightb=1 / open_gop=0 / weightp=2 / keyint=250 / keyint_min=23 / scenecut=40 / intra_refresh=0 / rc_lookahead=50 / rc=abr / mbtree=1 / bitrate=1100 / ratetol=1.0 / qcomp=0.60 / qpmin=0 / qpmax=69 / qpstep=4 / ip_ratio=1.40 / aq=1:1.00
Language                                 : English
Encoded date                             : UTC 2017-02-10 19:48:33
Tagged date                              : UTC 2017-02-10 19:48:33
Codec configuration box                  : avcC



It says, width=720p; height=400p .


Some screenshots:



The movie was old, so the screenshots I posted in details was not mesmerizing! I feel like the movie file was not checked or it's "wrongly deleted"!

Last edited by Sajal1 at 12/05/2019 17:31:38

top

Post #2
whitezshadow|
Quality Control Staff

12/05/2019 18:34:21
(22 weeks ago)
Ratio: 124.96
Posts: 1140
United States of America  
Its not 720P its 400p. In 720P resolution movies the height should be exactly 720P or close to 720P. Hope u have got it.


_______________________________________________

top

Post #3
Sajal1|| 
Members

12/05/2019 20:28:28
(22 weeks ago)
Ratio: 1.80
Posts: 2
Bangladesh  
Okay. So I think this upload is also below 720p: https://www.crazyhd.com/index.php?page=topics&id=36395ffea6f3553b9ff6233393643da78a026fd9
? Why is that allowed?

Last edited by Sajal1 at 13/05/2019 03:17:04

top

Post #4
whitezshadow|
Quality Control Staff

13/05/2019 05:26:28
(22 weeks ago)
Ratio: 124.96
Posts: 1140
United States of America  
Its more than 480p & close to 720p so It's considered as 720p


_______________________________________________

top

Post #5
Err_Or|Pirate King| 
Legend

13/05/2019 05:38:21
(22 weeks ago)
Ratio: 1,796.38
Posts: 426
Sweden  

Sajal1 wrote:
The media-info of my movie:


Code

Video
ID                                       : 1
Format                                   : AVC
Format/Info                              : Advanced Video Codec
Format profile                           : [email protected]
Format settings                          : CABAC / 5 Ref Frames
Format settings, CABAC                   : Yes
Format settings, RefFrames               : 5 frames
Codec ID                                 : avc1
Codec ID/Info                            : Advanced Video Coding
Duration                                 : 1 h 29 min
Bit rate                                 : 1 100 kb/s
Width                                    : 720 pixels
Height                                   : 400 pixels
Display aspect ratio                     : 16:9
Frame rate mode                          : Constant
Frame rate                               : 23.976 (23976/1000) FPS
Color space                              : YUV
Chroma subsampling                       : 4:2:0
Bit depth                                : 8 bits
Scan type                                : Progressive
Bits/(Pixel*Frame)                       : 0.159
Stream size                              : 700 MiB (89%)
Writing library                          : x264 core 148 r2597M e86f3a1
Encoding settings                        : cabac=1 / ref=5 / deblock=1:-1:-1 / *censored*yse=0x3:0x113 / me=umh / subme=9 / psy=1 / psy_rd=1.00:0.15 / mixed_ref=1 / me_range=16 / chroma_me=1 / trellis=2 / 8x8dct=1 / cqm=0 / deadzone=21,11 / fast_pskip=1 / chroma_qp_offset=-3 / threads=12 / lookahead_threads=1 / sliced_threads=0 / nr=0 / decimate=1 / interlaced=0 / bluray_compat=0 / constrained_intra=0 / bframes=3 / b_pyramid=2 / b_adapt=2 / b_bias=0 / direct=3 / weightb=1 / open_gop=0 / weightp=2 / keyint=250 / keyint_min=23 / scenecut=40 / intra_refresh=0 / rc_lookahead=50 / rc=abr / mbtree=1 / bitrate=1100 / ratetol=1.0 / qcomp=0.60 / qpmin=0 / qpmax=69 / qpstep=4 / ip_ratio=1.40 / aq=1:1.00
Language                                 : English
Encoded date                             : UTC 2017-02-10 19:48:33
Tagged date                              : UTC 2017-02-10 19:48:33
Codec configuration box                  : avcC



It says, width=720p; height=400p .


Some screenshots:



The movie was old, so the screenshots I posted in details was not mesmerizing! I feel like the movie file was not checked or it's "wrongly deleted"!



You have taken screenshots in a wrong way. It is actually your display resolution. Take screenshots properly by using any video player like VLC/POT player etc. here i m giving you VLC method.
1. Open VLC Player
2. [url]http://prntscr.com/klofn1 [/url] check this option.
3. http://prntscr.com/klogd9 click this Key.

Secondly, the media info you have provided is actually 360p resolution. because, height is not 480p that's why we count it as 360p.  below 720p videos are not allowed in our server. You movie was not deleted wrongly. read site rules before upload any content.
If you have any confusion still now then contact me via PM.
Wish you all the luck.

Take Care. cool1.gif

Last edited by Err_Or at 13/05/2019 05:39:42


_______________________________________________

top

Post #6
_SOPAN_|| 
Legend

15/05/2019 00:55:24
(22 weeks ago)
Ratio: 45.51
Posts: 67
Bangladesh  
Check this IMAGE below, it'll help you to understand actual resolution.


_______________________________________________

top